+ kiddiecuecards.com »  :::: Hollywood Zone » Hollywood Movies (Original Rips)
|- The Dark Knight Rises 2012 BRRip XviD - [RiSES] 700mb


Amazon Pantry Offer

The Dark Knight Rises 2012 BRRip XviD - [RiSES] 700mb

0 Members and 1 Guest are viewing this topic.

November 15, 2012, 04:48:37 PM
  • Admin (Inactive)
  • Legend Member
  • ****
  • Topic Author
  • Thank You: 1347
  • Reputation: 711
  • Activity:
    0%
  • Posts: 2474
  • Topics: 1525
  • Join Date: Jun 2012
  • ShareSpark Member
The Dark Knight Rises 2012 BRRip XviD - [RiSES] 700mb












Source Used :-

Video - 720p Sparks - Thanks!
Audio - 720p Sparks - Thanks!

Video
ID : 0
Format : MPEG-4 Visual
Format profile : Advanced [email protected]
Format settings, BVOP : 2
Format settings, QPel : Yes
Format settings, GMC : No warppoints
Format settings, Matrix : Default (H.263)
Codec ID : XVID
Codec ID/Hint : XviD
Duration : 2h 44mn
Bit rate : 500 Kbps
Width : 640 pixels
Height : 272 pixels
Display aspect ratio : 2.35:1
Frame rate : 23.976 fps
Color space : YUV
Chroma subsampling : 4:2:0
Bit depth : 8 bits
Scan type : Progressive
Compression mode : Lossy
Bits/(Pixel*Frame) : 0.120
Stream size : 588 MiB (85%)
Writing library : XviD 1.2.1 (UTC 2008-12-04)

Audio
ID : 1
Format : MPEG Audio
Format version : Version 1
Format profile : Layer 3
Mode : Joint stereo
Mode extension : MS Stereo
Codec ID : 55
Codec ID/Hint : MP3
Duration : 2h 44mn
Bit rate mode : Constant
Bit rate : 80.0 Kbps
Channel(s) : 2 channels
Sampling rate : 32.0 KHz
Compression mode : Lossy
Stream size : 94.2 MiB (14%)
Alignment : Aligned on interleaves
Interleave, duration : 167 ms (4.00 video frames)
Interleave, preload duration : 216 ms
Title : [1] English
Writing library : LAME3.99r
Encoding settings : -m j -V 4 -q 2 -lowpass 13.5 -b 80











































Share this topic on FacebookShare this topic on GoogleShare this topic on MySpaceShare this topic on TwitterShare this topic on Yahoo

« Last Edit: November 15, 2012, 05:01:30 PM by blooodred »



Tags:
 

Related Topics

  Subject / Started by Replies Last post
0 Replies
917 Views
Last post July 14, 2012, 09:59:24 PM
by мя.иαωαz мυgнαl
0 Replies
787 Views
Last post September 22, 2012, 11:49:10 PM
by GNChaT
3 Replies
1095 Views
Last post November 22, 2012, 05:55:50 PM
by Hυмzα kнαliÐ
3 Replies
1366 Views
Last post November 16, 2012, 12:11:11 PM
by Maverick.Dude™
8 Replies
416 Views
Last post October 19, 2018, 10:03:25 AM
by rahulgoyal




Back to top
Sitemap